Джуманджи / Jumanji (1995) BDRip 1080p » Пуз Карапуз | Сайт для детей и родителей
up
Детские и семейные художественные фильмы


pogorelski 21-09-2011
Джуманджи / Jumanji (1995) BDRip 1080p
Вернуться на главную
808 просмотров
0 комментариев
 
Идентификатор кодека : V_MPEG4/ISO/AVCЯзык : English

Аудио #1
Идентификатор : 2
Формат : AC-3
Формат/Информация : Audio Coding 3
Расширение режима : CM (complete main)
Идентификатор кодека : A_AC3
Продолжительность : 1 ч. 44 м.
Вид битрейта : Постоянный
Битрейт : 448 Кбит/сек
Канал(ы) : 6 канала(ов)
Расположение каналов : Front: L C R, Side: L R, LFE
Частота : 48,0 КГц
Битовая глубина : 16 бит
Метод сжатия : С потерями
Задержка видео : 975 мс.
Размер потока : 334 Мбайт (3% )
Заголовок : AC3 ~448 kbps, 6 ch. | Dub
Язык : Russian

Аудио #2
Идентификатор : 3
Формат : DTS
Формат/Информация : Digital Theater Systems
Идентификатор кодека : A_DTS
Продолжительность : 1 ч. 44 м.
Вид битрейта : Постоянный
Битрейт : 755 Кбит/сек
Канал(ы) : 6 канала(ов)
Расположение каналов : Front: L C R, Side: L R, LFE
Частота : 48,0 КГц
Битовая глубина : 24 бит
Метод сжатия : С потерями
Задержка видео : 975 мс.
Размер потока : 562 Мбайт (5% )
Заголовок : DTS ~768 kbps, 6 ch. | MVO (Superbit)
Язык : Russian

Аудио #3
Идентификатор : 4
Формат : AC-3
Формат/Информация : Audio Coding 3
Расширение режима : CM (complete main)
Идентификатор кодека : A_AC3
Продолжительность : 1 ч. 44 м.
Вид битрейта : Постоянный
Битрейт : 192 Кбит/сек
Канал(ы) : 2 канала(ов)
Расположение каналов : Front: L R
Частота : 48,0 КГц
Битовая глубина : 16 бит
Метод сжатия : С потерями
Задержка видео : 975 мс.
Размер потока : 143 Мбайт (1% )
Заголовок : AC3 ~192 kbps, 2 ch. | MVO (ВидеоСервис)
Язык : Russian

Аудио #4
Идентификатор : 5
Формат : DTS
Формат/Информация : Digital Theater Systems
Идентификатор кодека : A_DTS
Продолжительность : 1 ч. 44 м.
Вид битрейта : Постоянный
Битрейт : 755 Кбит/сек
Канал(ы) : 6 канала(ов)
Расположение каналов : Front: L C R, Side: L R, LFE
Частота : 48,0 КГц
Битовая глубина : 24 бит
Метод сжатия : С потерями
Задержка видео : 975 мс.
Размер потока : 562 Мбайт (5% )
Заголовок : DTS ~768 kbps, 6 ch. | AVO (Гаврилов)
Язык : Russian

Аудио #5
Идентификатор : 6
Формат : AC-3
Формат/Информация : Audio Coding 3
Расширение режима : CM (complete main)
Идентификатор кодека : A_AC3
Продолжительность : 1 ч. 44 м.
Вид битрейта : Постоянный
Битрейт : 448 Кбит/сек
Канал(ы) : 6 канала(ов)
Расположение каналов : Front: L C R, Side: L R, LFE
Частота : 48,0 КГц
Битовая глубина : 16 бит
Метод сжатия : С потерями
Задержка видео : 975 мс.
Размер потока : 334 Мбайт (3% )
Заголовок : AC3 ~448 kbps, 6 ch. | AVO (Живов)
Язык : Russian

Аудио #6
Идентификатор : 7
Формат : AC-3
Формат/Информация : Audio Coding 3
Расширение режима : CM (complete main)
Идентификатор кодека : A_AC3
Продолжительность : 1 ч. 44 м.
Вид битрейта : Постоянный
Битрейт : 192 Кбит/сек
Канал(ы) : 2 канала(ов)
Расположение каналов : Front: L R
Частота : 48,0 КГц
Битовая глубина : 16 бит
Метод сжатия : С потерями
Задержка видео : 975 мс.
Размер потока : 143 Мбайт (1% )
Заголовок : AC3 ~192 kbps, 2 ch. | AVO (Визгунов)
Язык : Russian

Аудио #7
Идентификатор : 8
Формат : AC-3
Формат/Информация : Audio Coding 3
Расширение режима : CM (complete main)
Идентификатор кодека : A_AC3
Продолжительность : 1 ч. 44 м.
Вид битрейта : Постоянный
Битрейт : 192 Кбит/сек
Канал(ы) : 2 канала(ов)
Расположение каналов : Front: L R
Частота : 48,0 КГц
Битовая глубина : 16 бит
Метод сжатия : С потерями
Задержка видео : 975 мс.
Размер потока : 143 Мбайт (1% )
Заголовок : AC3 ~192 kbps, 2 ch. | AVO (Гаврилов (ранний))
Язык : Russian

Аудио #8
Идентификатор : 9
Формат : DTS
Формат/Информация : Digital Theater Systems
Идентификатор кодека : A_DTS
Продолжительность : 1 ч. 44 м.
Вид битрейта : Постоянный
Битрейт : 1510 Кбит/сек
Канал(ы) : 6 канала(ов)
Расположение каналов : Front: L C R, Side: L R, LFE
Частота : 48,0 КГц
Битовая глубина : 24 бит
Метод сжатия : С потерями
Размер потока : 1,10 Гбайт (10% )
Заголовок : DTS ~1510 kbps, 6 ch.
Язык : English

Текст #1
Идентификатор : 10
Формат : UTF-8
Идентификатор кодека : S_TEXT/UTF8
Идентификатор кодека/Информация : UTF-8 Plain Text
Язык : Russian

Текст #2
Идентификатор : 11
Формат : UTF-8
Идентификатор кодека : S_TEXT/UTF8
Идентификатор кодека/Информация : UTF-8 Plain Text
Язык : English[/spoiler]

Джуманджи / Jumanji (1995) BDRip 1080p Джуманджи / Jumanji (1995) BDRip 1080p Джуманджи / Jumanji (1995) BDRip 1080p

Скачать Джуманджи / Jumanji (1995) BDRip 1080p

Скачать бесплатно
Новости по теме

Последние комментарии:
Информация
Посетители, находящиеся в группе Гость, не могут оставлять комментарии к данной публикации.
Поиск по сайту:
Мы в социальных сетях
Яндекс.Метрика